Вход Регистрация

Aqua Форум

Поиск Просмотр новых публикаций
aquafan.net.ru Форумы Пользователи
Страница 1 из 11
Архив - только для чтения
Форум » Архив форума до 1.12.2013 » Файлообменник » Back To The 80's (Live The Dome RTL || Germany 2009)
Back To The 80's
FanTOMASДата: Суббота, 2010-02-27, 10:45 | Сообщение # 1
Пользователь
70 сообщений
Выступление на The Dome

Quote
Format : AVI
Format/Info : Audio Video Interleave
File size : 49.3 MiB
Duration : 3mn 3s
Overall bit rate : 2 257 Kbps

Video
ID : 0
Format : MPEG-4 Visual
Format profile : Simple@L1
Format settings, BVOP : No
Format settings, QPel : No
Format settings, GMC : No warppoints
Format settings, Matrix : Default (H.263)
Codec ID : DIVX
Codec ID/Info : Project Mayo
Codec ID/Hint : DivX 4
Duration : 3mn 3s
Bit rate : 2 020 Kbps
Width : 720 pixels
Height : 400 pixels
Display aspect ratio : 16:9
Frame rate : 25.000 fps
Resolution : 8 bits
Colorimetry : 4:2:0
Scan type : Progressive
Bits/(Pixel*Frame) : 0.281
Stream size : 44.1 MiB (90%)

Audio
ID : 1
Format : MPEG Audio
Format version : Version 1
Format profile : Layer 3
Codec ID : 55
Codec ID/Hint : MP3
Duration : 3mn 3s
Bit rate mode : Constant
Bit rate : 224 Kbps
Channel(s) : 2 channels
Sampling rate : 44.1 KHz
Stream size : 4.89 MiB (10%)
Alignment : Aligned on interleaves
Interleave, duration : 26 ms (0.65 video frame)


Доступно только для пользователей


 
Форум » Архив форума до 1.12.2013 » Файлообменник » Back To The 80's (Live The Dome RTL || Germany 2009)
Страница 1 из 11
Поиск:
Правила ресурса | Хостинг от uCoz | feedback